#TITLE:HANKY PANKY;
#SUBTITLE:(e=mc2);
#ARTIST:Jenny Rom;
#TITLETRANSLIT:;
#SUBTITLETRANSLIT:;
#ARTISTTRANSLIT:;
#CREDIT:;
#BANNER:HankyPanky-banner.png;
#BACKGROUND:HankyPanky-bg.png;
#LYRICSPATH:;
#CDTITLE:;
#MUSIC:Hanky Panky.mp3;
#MUSICLENGTH:91.541;
#OFFSET:-0.080;
#SAMPLESTART:46.425;
#SAMPLELENGTH:12.000;
#SELECTABLE:YES;
#BPMS:0.000=173.140;
#STOPS:130.000=0.740
;
#BGCHANGES:;
#FIRSTBEAT:16.000;

#LASTBEAT:260.000;

#SONGFILENAME:Songs/ERICth The 3rd/Hanky Panky/Hanky Panky.sm;

#HASMUSIC:1;

#HASBANNER:1;


//---------------dance-single - MANIAC----------------
#NOTES:
     dance-single:
     MANIAC:
     hard:
     9:
     0.723,0.746,0.863,0.131,0.191,372.000,79.000,12.000,0.000,0.000:


0000
0000
0000
0000
,
0000
0000
0000
0000
,
0000
0000
0000
0000
,
0000
0000
0000
0000
,
0001
0000
0000
0010
0000
0000
0010
0000
0001
0000
1000
0000
0100
0000
1000
0000
,
0010
0000
0000
0100
0000
0000
1000
0000
0100
0000
0001
0000
0100
0000
1000
0000
,
0010
0000
0000
0100
0000
0000
0001
0000
0010
0000
0100
0000
1000
0000
1000
0000
,
0100
0000
0000
0100
0000
0000
0100
0000
0100
0000
0010
0000
0001
0000
1000
0000
,
1000
0010
1000
0010
1000
0010
1000
0001
,
0100
0010
0100
0010
0100
0010
0100
0000
,
1100
0000
1000
0100
1000
0000
0100
1000
0100
0000
1000
0000
1100
0000
0000
0000
,
1010
0011
1010
0000
,
0101
0000
0001
0100
0001
0000
0100
0001
0100
0000
0001
0000
0101
0000
0000
0000
,
0011
1010
0011
0000
,
0110
0000
0100
0010
0100
0000
0010
0100
0010
0000
0100
0000
0110
0000
0000
0000
,
1010
0101
1001
0000
,
1000
0000
0100
0000
0010
0000
0001
0010
0001
0000
0010
0000
0100
0000
2000
0000
,
0001
0000
3001
0001
0110
0000
1001
0000
,
1010
0000
0010
1000
0010
0000
0010
1000
0010
0000
1000
0000
1010
0000
0000
0000
,
0001
0010
0100
1000
0001
1000
0001
0000
,
0101
0000
0100
0001
0100
0000
0100
0001
0100
0000
0001
0000
0101
0000
0000
0000
,
1000
0010
1000
0001
0010
0001
1000
0000
,
1001
0000
1000
0001
1000
0000
1000
0001
1000
0000
0001
0000
1001
0000
0000
0000
,
1100
0101
0011
1010
,
0001
0000
0100
0000
0010
0000
1000
0100
1000
0000
0010
0000
0100
0000
0002
0000
,
1000
0000
1003
1000
1001
0001
0001
0100
,
1100
0000
0000
0100
0000
0000
0010
0000
0011
0000
0000
0001
0000
0000
1000
0000
,
1010
0000
0000
0100
0000
0000
0001
0000
1001
0000
0000
0000
0000
0000
0000
0000
,
0110
0000
0000
0100
0000
0000
0110
0000
0100
0000
0000
1001
0000
0000
1100
0000
,
1100
0000
1000
0000
0001
0010
0001
0000
,
1100
0000
0000
0100
0000
0000
0010
0000
0011
0000
0000
0001
0000
0000
1000
0000
,
1010
0000
0000
0100
0000
0000
0001
0000
1001
0000
0000
0000
0000
0000
0000
0000
,
0110
0000
0000
0100
0000
0000
0110
0000
0100
0000
0000
0000
0000
0000
0000
0000
,
1001
0000
1000
0010
0000
1010
0000
1000
,
0011
0001
0100
0010
0100
0010
0000
0000
,
1000
0000
0110
0010
0000
0011
0000
0001
,
1000
0100
0010
0001
0000
0000
0010
0100
,
0010
0010
0100
0110
0000
0110
0000
1000
,
1001
0000
0001
1001
0000
1010
0000
0000
,
1000
0010
1000
0010
1000
0010
1000
0010
,
0001
0010
1000
1010
0000
0010
1000
0001
,
1001
0000
1000
0010
0000
1010
0000
1000
,
0011
0001
0100
0010
0100
0010
0000
0000
,
1000
0000
0110
0010
0000
0011
0000
0001
,
1000
0100
0010
0001
0000
0000
0010
0100
,
0010
0010
0100
0110
0000
0110
0000
1000
,
1001
0000
0001
1001
0000
1010
0000
0000
,
1000
0010
1000
0010
1000
0010
1000
0010
,
0001
0010
1000
2020
0000
0000
3030
0000
,
0001
0000
0000
0010
0000
0000
0010
0000
0001
0000
1000
0000
0100
0000
1000
0000
,
0010
0000
0000
0100
0000
0000
1000
0000
0100
0000
0001
0000
0100
0000
1000
0000
,
0010
0000
0000
0100
0000
0000
0001
0000
0010
0000
0100
0000
1000
0000
1000
0000
,
0100
0000
0000
0100
0000
0000
0100
0000
0100
0000
0010
0000
0001
0000
1000
0000
,
1001
0000
0000
0011
0000
0000
0010
0000
0101
0000
1000
0000
0100
0000
1000
0000
,
0110
0000
0000
0101
0000
0000
1000
0000
0100
0000
1001
0000
0100
0000
1000
0000
,
0010
0000
0000
1100
0000
0000
0001
0000
0011
0000
0100
0000
1000
0000
1000
0000
,
0110
0000
0000
0100
0000
0000
0100
0000
0110
0000
0010
0000
0001
0000
1000
0000
,
0200
0000
0000
0000
0000
1300
0001
0100
,
0020
0000
0000
0000
0000
1030
0100
0010
,
0002
0000
0000
0000
0000
1003
0100
1000
,
0020
0000
0000
0000
0000
1030
0001
0010
,
0200
0000
0000
0000
0000
1300
0001
0010
,
0002
0000
0000
0000
0000
1003
0001
0100
,
0220
0000
0000
0000
0330
0110
0000
0001
,
1000
0100
0010
1001
0010
0100
1000
1000
,
1001
0000
0000
0000;

//---------------dance-single - ANOTHER----------------
#NOTES:
     dance-single:
     ANOTHER:
     medium:
     4:
     0.435,0.462,0.098,0.011,0.000,269.000,9.000,1.000,0.000,0.000:

0000
0000
0000
0000
,
0000
0000
0000
0000
,
0000
0000
0000
0000
,
0000
0000
0000
0000
,
0010
1000
0000
1000
0100
1000
0100
0000
,
0010
1000
0000
0001
0010
0001
0100
0000
,
0001
1000
0000
0100
0010
0001
0001
0000
,
0001
1000
0100
0010
,
1000
0100
0010
0001
,
1000
0200
0310
1001
,
1001
0100
0010
0001
,
1000
0100
1000
0010
,
1000
0000
0001
0000
0100
0001
0010
0000
,
0001
0000
0000
1000
0100
0000
1000
0000
,
0001
0000
0010
0000
0001
1000
0100
0000
,
0010
1000
0100
0010
,
0100
0000
0010
0000
0100
0010
0100
0010
,
0000
0001
1000
0010
,
0010
0000
1000
0000
0001
0100
0001
0000
,
0010
0000
0001
0000
0000
0101
0001
0000
,
1000
0000
0100
0000
0010
0001
0010
0000
,
0100
0000
1000
0000
0010
1000
0000
0001
,
0100
0000
0010
0000
1000
0100
0010
0000
,
0001
0000
1000
0000
0010
0100
0010
0000
,
1000
0000
0001
0000
0010
0100
1000
0001
,
0000
0100
0100
0100
,
0010
0010
1000
0001
,
0010
0100
1000
0010
,
0100
0001
1000
0100
,
0010
0000
0000
0001
1000
0000
0010
0000
,
0100
0001
1000
0100
,
0010
0000
0001
1000
0001
0000
1000
0000
,
0001
1000
1001
0000
,
1001
0100
0010
0001
,
1000
0000
0100
0010
0000
0001
0000
0000
,
0100
0000
1000
0010
0000
0010
0000
0000
,
1000
0000
0001
1000
0000
0000
0000
0000
,
0100
0000
0010
0001
0000
0001
0000
0000
,
0010
0000
0100
1000
0000
1000
0000
0000
,
1000
0000
0010
0000
0100
0001
0100
0001
,
1000
0010
0100
0001
0000
0000
0000
0000
,
0100
0000
1000
0010
0000
0010
0000
0000
,
0001
0000
1000
0100
0000
0100
0000
0000
,
1000
0000
0010
0100
0000
0100
0000
0001
,
1000
0100
0000
0010
0000
0000
0000
0000
,
0001
0000
1000
0010
0000
0010
0000
0000
,
1000
0000
0100
0010
0000
0010
0000
0000
,
0001
1000
0100
1000
0001
0000
0000
0000
,
0001
1000
0100
1000
0000
0000
0000
0000
,
0010
0000
1000
0001
,
0010
0000
0000
0000
0001
1000
0001
0000
,
0100
0000
0000
0000
0010
0001
0100
0000
,
0001
0000
0000
0000
0100
1000
0010
0000
,
0001
0000
1000
0000
0001
1000
0001
0000
,
0100
0000
0010
0000
0010
0001
0010
0000
,
0001
0000
1000
0000
0100
1000
0100
0000
,
0010
1000
0001
0100
0000
0000
0001
0000
,
1000
0010
1000
0001
,
0010
0100
0110
0110
,
0110
1000
0001
0100
,
0010
0000
0010
0000
1000
0000
0001
0010
,
0100
0000
1000
0000
0010
0000
0100
0001
,
0010
0000
0001
0000
1000
0000
0100
1000
,
0100
0000
0010
0000
1000
0000
0001
0100
,
0001
0010
1000
0001
,
1001
0000
0000
0000
,;

//---------------dance-single - BASIC----------------
#NOTES:
     dance-single:
     BASIC:
     easy:
     3:
     0.351,0.462,0.262,0.098,0.000,192.000,24.000,9.000,0.000,0.000:

0000
0000
0000
0000
,
0000
0000
0000
0000
,
0000
0000
0000
0000
,
0000
0000
0000
0000
,
0020
0000
0000
0000
,
0000
0000
0000
0000
,
2030
0000
0000
0000
,
3002
0000
2003
3001
,
0001
0100
1000
0010
,
0100
0001
1000
1001
,
1001
0100
0010
0001
,
1000
0010
0100
0001
,
1000
0100
0010
0001
,
1000
0010
0100
0001
,
1000
0100
0100
1000
,
0010
0001
1000
0001
,
1000
0100
0010
0001
,
1001
1001
0100
0100
,
0010
0001
1000
0100
,
0010
0001
1000
0010
,
0010
0100
0001
1000
,
0001
0100
0001
0101
,
0010
1000
0100
0010
,
0001
1000
0100
0010
,
1000
0001
0100
0001
,
1000
0010
0010
0010
,
0010
0000
1000
0000
,
0001
0000
0100
0000
,
0010
0000
1000
0000
,
0100
0000
0010
0000
,
0100
0000
0110
0000
,
1001
0000
0100
0000
,
1000
0001
1000
0000
,
1001
0100
0010
0001
,
0000
1001
0100
0000
,
1001
0100
0010
0001
,
1000
0100
1100
0000
,
1001
0100
0010
0001
,
1000
0010
0100
0000
,
1001
0100
0010
0001
,
1000
0001
1000
1000
,
1000
0001
0010
0000
,
0001
0010
0100
0000
,
0001
0010
0100
1000
,
0100
1001
1001
1001
,
1001
0100
0010
0001
,
1000
0010
0100
0000
,
1001
1010
0101
0001
,
0001
1000
0100
0000
,
1100
0000
0001
0001
,
0101
0000
1100
1000
,
1000
0010
0000
0100
,
0001
0000
0010
0001
,
1000
0000
0000
0001
,
1000
0000
0001
0001
,
1000
0000
0002
1003
,
0001
1000
0100
0000
,
0020
0000
0000
0000
,
0230
0000
0000
0000
,
2300
0000
0000
0000
,
3002
0000
0000
0000
,
0013
0010
0010
0100
,
1000
0001
0100
0010
,
1000
0100
0010
0001
,
1000
0001
1000
0001
,
0110
0000
0000
0000
,;
